#TITLE:Otherworld;
#SUBTITLE:Final Fantasy X;
#ARTIST:The Black Mages;
#TITLETRANSLIT:;
#SUBTITLETRANSLIT:;
#ARTISTTRANSLIT:;
#CREDIT:;
#BANNER:other-ba.png;
#BACKGROUND:other-bg.png;
#LYRICSPATH:;
#CDTITLE:Mus1c.png;
#MUSIC:Otherworld (Final Fantasy X).mp3;
#OFFSET:0.000;
#SAMPLESTART:32.000;
#SAMPLELENGTH:12.000;
#SELECTABLE:YES;
#BPMS:0.000=155.030;
#STOPS:;
#BGCHANGES:;
// cache tags:
#FIRSTBEAT:1.000;
#LASTBEAT:491.500;
#SONGFILENAME:Songs/nhac/Otherworld/Otherworld.sm;
#HASMUSIC:1;
#HASBANNER:1;
#MUSICLENGTH:194.821;
// end cache tags

//---------------dance-single - ----------------
#NOTES:
     dance-single:
     :
     Hard:
     11:
     0.922,1.000,1.000,0.406,0.393,871.000,308.000,79.000,0.000,4.000:
0000
0000
1010
1010
0001
0010
0100
0001
,
1000
0100
0010
0001
0100
0010
0001
2010
,
3000
0000
0110
0110
0001
0100
0010
1000
,
0001
0100
0010
1000
0001
0100
0010
0102
,
0003
0000
0000
0000
0000
0000
2010
0000
0000
3000
0000
0000
0001
0000
0100
0000
0010
0000
0001
0000
1000
0000
0100
0000
,
0010
0000
0001
0000
0100
0000
0011
0000
0000
0011
0000
0000
0000
0000
0000
0000
0000
0000
2002
0000
0000
0000
0000
0000
,
3003
0000
1100
1100
0000
0000
0220
0000
,
0330
0000
1010
1010
0000
0000
2020
0000
,
3030
0000
0011
0110
1100
0101
1010
0220
,
0330
0000
1010
1010
0000
0000
0220
0000
,
0330
0000
0110
0110
0000
0000
2002
0000
,
3003
0000
0101
0101
0000
0000
2020
0000
,
3030
0000
0011
0110
0101
1010
1100
0011
,
1010
0110
0001
0001
1100
1100
0010
0010
,
0101
0101
0010
0010
1100
0000
1001
1010
,
0000
1100
0010
0010
1001
1001
0100
0100
,
0011
0011
1000
1000
0011
0100
0100
1010
,
0000
1010
0000
0000
1010
0000
1010
0000
0001
0000
0001
0000
0110
0000
0110
0000
,
1000
1000
0011
0011
1100
0000
0110
0110
,
0000
0110
0011
0011
0100
0100
1001
1001
,
0100
0100
1010
1010
0100
0100
0011
1001
,
0000
0000
0000
0001
0010
0100
1000
0001
0010
0100
1000
0001
0010
0100
1000
0001
,
0110
0000
1001
0100
0010
0100
0011
0100
,
0010
1000
0110
0001
0110
1000
0110
0110
,
0001
0100
1000
0011
0110
1010
0101
0010
,
1100
1001
0100
2020
0000
0000
3030
0000
,
0000
0000
1100
0001
0100
0010
1001
0100
,
0010
0001
0110
0001
1100
0010
0101
0110
,
0001
0100
0010
1100
0101
0110
1001
0100
,
0011
1100
0001
0220
0000
0000
0330
0000
,
0000
1100
0101
1100
,
0000
0011
0000
0000
1100
0000
0110
0110
,
0000
0000
0110
0011
1010
0000
0110
0000
,
0000
1010
0000
0000
1100
0000
0101
0000
,
0000
1010
1001
1100
,
0000
0101
0000
0000
0110
0000
1001
0110
,
0000
0000
1010
0101
1010
0000
1100
0000
,
0000
0101
0000
0000
1100
0000
1001
0000
,
0000
0000
0110
0110
0110
0110
0110
0110
,
0000
0000
1100
0001
0100
0010
0101
1000
,
0100
0001
1010
0100
1010
0001
1010
1010
,
0001
0100
0001
0110
1001
0110
0101
0010
,
1100
0101
0010
1001
0000
0000
0000
0000
,
0000
0000
0101
0010
0001
0100
1010
1010
,
0001
0100
0011
1000
0110
0100
1001
0101
,
0010
0001
0100
0011
0110
1010
1001
0100
,
0011
0101
0010
0101
0000
0000
0000
0000
,
0000
0000
2000
3200
0320
0032
2003
3020
,
0230
0302
0023
2030
3020
0230
0302
0023
,
0032
0203
0302
0203
2300
3020
0230
0302
,
0203
0302
2003
3020
2030
3002
0203
2300
,
3002
0023
1130
0010
0001
0010
0100
1000
,
0001
0100
1010
0001
0100
0001
0100
1000
,
0010
0100
0011
0100
0010
0001
0100
0010
,
1000
0000
0001
0000
1010
0000
0000
1000
0001
1000
0001
1000
0001
1000
0001
1000
,
0001
1000
0001
1000
0110
0000
0100
0000
0100
0000
0010
0000
0010
0000
0010
0000
,
1000
0000
0000
1000
0000
0000
1000
0000
0100
0000
0010
0000
0001
0000
0100
0000
0010
0000
1000
0000
0001
0000
0100
0000
,
2002
3003
0000
0102
0000
0000
0000
0000
0000
0000
0000
0000
,
0000
0000
1003
0100
2000
0000
0000
0000
0000
0000
0000
0000
0000
0000
0000
0000
,
0000
0000
0000
0000
0000
0000
0000
0000
0000
0000
3001
0000
0010
0000
0100
0000
1000
0000
0100
0000
0010
0000
0001
1000
0000
0000
0010
0000
0000
0000
0100
0000
,
0000
1000
0000
0000
0000
0010
0000
0000
0000
1000
0000
0000
0100
0000
0000
1000
0000
0000
0000
0010
0000
0000
0100
0000
0000
0001
0000
0010
0000
0100
0000
1000
,
0000
0010
0000
0100
0000
0010
0000
0100
0000
0010
0000
0000
0000
0000
0000
0010
0000
0000
0000
1000
0000
0000
0010
0000
2001
0000
0000
0000
0000
0000
0000
0000
,
0000
0000
0000
0000
0000
0000
3000
0000
0000
0000
0000
0000
1000
0100
0010
0001
,
0100
1000
0001
0010
0100
1000
0100
0001
0010
0100
1000
0001
0010
0100
0010
0001
,
0100
0010
0100
1000
0100
0010
0001
1000
0020
0000
0000
0030
0001
0000
0100
0010
,
0001
0000
0000
0100
0000
0000
0010
0000
0000
1000
0000
0000
0002
0000
0000
0000
0000
0000
0000
0000
0000
0003
0000
0000
0010
0000
0000
0000
1000
0000
0000
0000
0100
0000
0000
0000
1000
0000
0000
0000
0001
0000
0000
0000
1000
0000
0000
0000
,
0100
0000
0000
0000
0010
0000
0000
0000
0100
0000
0000
0000
1000
0000
0000
0100
0000
0000
0001
0000
0000
0010
0000
0000
0100
0000
0000
1000
0000
0000
0001
0000
0000
0010
0000
0000
0100
0000
0000
0001
0000
0000
0010
0000
0000
0100
0000
0000
,
0001
0000
0000
0010
0000
0000
0100
0000
0000
0010
0000
0000
1000
0000
0000
0001
0000
0000
0100
0000
1000
0000
0100
0000
1000
0000
0100
0000
1000
0000
0100
0000
1000
0000
0100
0000
1000
0000
0000
0100
0000
0000
0010
0000
0000
0100
0000
0000
,
1000
0000
0000
0100
0000
0000
0010
0000
0001
0000
0010
0000
0001
0000
0010
0000
0001
0000
0010
0000
0000
1000
0000
0000
0100
0000
0000
0010
0000
0000
0001
0000
0000
0010
0000
0000
0100
0000
0000
0001
0000
0000
0010
0000
0000
0100
0000
0000
,
0010
0000
0000
0001
0000
0000
0100
0000
0000
0001
0000
0000
1000
0000
0100
0000
1000
0000
0100
0000
1000
0000
0100
0000
0010
0000
0001
0000
0010
0000
0001
0000
0010
0000
0001
0000
0100
0000
0010
0000
0100
0000
0010
0000
0100
0000
0010
0000
,
0001
1000
0001
1000
0001
1000
0001
0100
0001
0100
0001
0100
0010
1000
0010
1000
0010
1000
0200
0000
0000
0000
0000
0000
,
0000
0000
0310
0010
0010
1010
1000
1000
,
1001
0001
0001
0011
0010
0010
0110
0100
,
0101
0001
1001
1000
1000
1010
0010
0010
,
0110
0100
0100
0101
0001
0001
1001
1000
,
1010
0010
0110
0100
0100
1100
0100
0100
,
0101
0100
0100
0110
0100
0100
1100
0100
,
1100
0100
0101
0001
0001
0011
0001
0001
,
0101
0001
0001
0011
0001
0001
1001
1000
,
1010
1000
1002
0010
1000
0010
1000
0010
,
1000
0010
1100
0010
1000
0010
1000
1000
,
1000
1000
0010
0100
0010
0100
0010
0100
,
0010
0100
1010
0100
0010
0100
0010
0010
,
0010
0000
0010
0000
1013
0000
1000
0000
1000
0000
1000
0000
1000
0010
1000
0000
,
0110
0000
0000
0000
0101
0000
0100
0000
0100
0000
0100
0000
0010
0100
0010
0000
,
0110
0000
0000
0000
1001
0000
0001
0000
0001
0000
0001
0000
0001
0100
0001
0000
,
0101
0000
0000
0000
0110
0000
1000
0001
1000
0001
1000
0001
1000
0001
1000
0001
,
1000
0001
1000
0000
0110
0000
0001
0000
0100
0000
0001
0000
1100
0000
0010
0000
,
0001
0100
0011
0100
1001
0100
1010
0011
,
0100
1000
0001
0110
1100
0101
0110
0100
,
1001
0110
0001
1100
0001
0100
0010
0001
,
0100
0010
1001
0100
0010
1000
0101
0010
,
1000
0001
0110
0001
1010
0100
0011
1010
,
0100
0001
0100
0011
0101
1001
0011
0100
,
1001
0101
0010
2002
0000
0000
0000
3003
,
0000
1100
0110
1001
,
0000
0101
0000
0000
1010
0000
0110
0110
,
0000
0000
0110
0011
1100
0000
0101
0000
,
0000
2020
3030
0000
1001
0000
0110
0000
,
0000
0011
0101
1100
,
0000
0101
0000
0000
0011
0000
1010
0101
,
0000
0000
0000
0000
0011
0110
1100
0000
,
0000
0011
0000
0000
1001
0000
0110
0000
,
0110
0000
1001
1001
1001
1001
1001
2002
,
3003
0000
1000
1000
0011
0011
0100
0100
,
1001
1001
0010
0010
1100
0000
1001
0110
,
0000
1100
0010
0010
1100
1100
0001
0001
,
1001
1001
0010
0010
0011
0000
0110
0011
,
0000
0000
1100
1100
0001
0001
1100
1100
,
0010
0010
1001
0000
1001
0000
1010
1010
,
0000
0000
1001
1001
0010
0010
1100
1100
,
0001
0001
1010
1010
0011
0000
0110
0110
,
0001
0001
2010
0000
0000
0000
0000
0000
,
0000
0000
0000
0000
0000
0000
0000
3000
,
0000
0020
0000
0000
0000
0000
0230
0000
,
0000
0302
0000
0000
2003
0000
3020
0000
,
0230
0302
0000
0000
0000
0000
0000
0000
,
2003
0000
0000
0000
,
3000
0000
0000
0101
0011
0101
0000
1010
,
1100
1010
0110
0000
0110
0110
0000
0110
,
0000
0000
0000
0000
0001
0010
0100
1000
0001
0010
0100
1000
0001
0010
0100
1000
,
0100
0010
0100
0010
1000
0100
0010
0001
1000
0100
0010
0001
1000
0100
0010
0001
,
1000
0100
0010
0000
1001
0000
1001
0000
1001
0000
2002
0000
0000
0000
3003
0000
;
